18 de Janeiro de 2018 | 15 de Janeiro de 2018 | 15 de Janeiro de 2018








Info

Project Almanac


6.4
IMDB: 6.4/10 61,511 votes

Durata: 106 min

Released:

Anno: 30 Jan 2015

Direttore:

Premi: N/A

Budget: 12000000$

Incassi: 32248241$

Stato: Released

Paese: USA

Tagline: Per riparare il passato, rischierebbe il vostro futuro.

Cast:




Un gruppo di amici fa una scoperta folle che li porta a sviluppare una macchina che viaggia nel tempo. Mantenendo segreta la loro incredibile scoperta, il gruppo, affiatato, inizia a viaggiare indietro nel tempo, portando dei piccoli ritocchi negli avvenimenti del passato, che alla fine vanno a cambiare il corso delle loro vite future. Ad ogni viaggio l’avventura per loro cresce, ma aumentano anche i rischi e la posta in gioco si fa sempre più alta. Nel tentativo di piegare il mondo ai loro voleri, le loro azioni iniziano a creare effetti a livello globale che si ritorcono loro contro. Alla fine i protagonisti si troveranno ad affrontare una corsa contro il tempo, passato e futuro, per poter correggere i propri errori e mettere la propria vita di nuovo in pista.

Trailer


Upload on Youtube

Info File

Video
ID : 1
Format : AVC
Format/Info : Advanced Video Codec
Format profile : [email protected]
Format settings, CABAC : Yes
Format settings, ReFrames : 5 frames
Codec ID : V_MPEG4/ISO/AVC
Duration : 1h 46mn
Bit rate : 6 994 Kbps
Width : 1 920 pixels
Height : 800 pixels
Display aspect ratio : 2.40:1
Frame rate mode : Constant
Frame rate : 23.976 fps
Color space : YUV
Chroma subsampling : 4:2:0
Bit depth : 8 bits
Scan type : Progressive
Bits/(Pixel*Frame) : 0.190
Stream size : 5.09 GiB (83%)
Writing library : x264 core 148 r2638 7599210
Encoding settings : cabac=1 / ref=5 / deblock=1:-1:-1 / analyse=0x3:0x113 / me=umh / subme=8 / psy=1 / psy_rd=1.00:0.15 / mixed_ref=1 / me_range=16 / chroma_me=1 / trellis=1 / 8x8dct=1 / cqm=0 / deadzone=21,11 / fast_pskip=1 / chroma_qp_offset=-3 / threads=6 / lookahead_threads=1 / sliced_threads=0 / nr=0 / decimate=1 / interlaced=0 / bluray_compat=0 / constrained_intra=0 / bframes=3 / b_pyramid=2 / b_adapt=2 / b_bias=0 / direct=3 / weightb=1 / open_gop=0 / weightp=2 / keyint=240 / keyint_min=23 / scenecut=40 / intra_refresh=0 / rc_lookahead=50 / rc=2pass / mbtree=1 / bitrate=6994 / ratetol=1.0 / qcomp=0.60 / qpmin=0 / qpmax=69 / qpstep=4 / cplxblur=20.0 / qblur=0.5 / vbv_maxrate=62500 / vbv_bufsize=78125 / nal_hrd=none / filler=0 / ip_ratio=1.40 / aq=1:1.00
Default : Yes
Forced : No

Audio #1
ID : 2
Format : AC-3
Format/Info : Audio Coding 3
Mode extension : CM (complete main)
Format settings, Endianness : Big
Codec ID : A_AC3
Duration : 1h 46mn
Bit rate mode : Constant
Bit rate : 640 Kbps
Channel(s) : 6 channels
Channel positions : Front: L C R, Side: L R, LFE
Sampling rate : 48.0 KHz
Bit depth : 16 bits
Compression mode : Lossy
Stream size : 486 MiB (8%)
Language : Italian
Default : Yes
Forced : No

Immagini

Project Almanac – Benvenuti A Ieri (2014), [BDrip 1080p – H264 – Ita Eng Ac3 5.1 – Sub Ita Eng]
Project Almanac – Benvenuti A Ieri (2014), [BDrip 1080p – H264 – Ita Eng Ac3 5.1 – Sub Ita Eng]
Project Almanac – Benvenuti A Ieri (2014), [BDrip 1080p – H264 – Ita Eng Ac3 5.1 – Sub Ita Eng]
Project Almanac – Benvenuti A Ieri (2014), [BDrip 1080p – H264 – Ita Eng Ac3 5.1 – Sub Ita Eng]
Project Almanac – Benvenuti A Ieri (2014), [BDrip 1080p – H264 – Ita Eng Ac3 5.1 – Sub Ita Eng]
Project Almanac – Benvenuti A Ieri (2014), [BDrip 1080p – H264 – Ita Eng Ac3 5.1 – Sub Ita Eng]
Project Almanac – Benvenuti A Ieri (2014), [BDrip 1080p – H264 – Ita Eng Ac3 5.1 – Sub Ita Eng]
Project Almanac – Benvenuti A Ieri (2014), [BDrip 1080p – H264 – Ita Eng Ac3 5.1 – Sub Ita Eng]
Project Almanac – Benvenuti A Ieri (2014), [BDrip 1080p – H264 – Ita Eng Ac3 5.1 – Sub Ita Eng]

Trackers

http://tracker.istole.it:80/
http://tracker.publicbt.com:80/
http://tracker.tntvillage.scambioetico.org:2710/scrape
http://tracker.coppersurfer.tk:6969/scrape
http://tracker.openbittorrent.com/scrape
http://open.demonii.com:1337/scrape